<?xml version="1.0" standalone="no"?>
<!DOCTYPE svg PUBLIC "-//W3C//DTD SVG 1.1//EN" "http://www.w3.org/Graphics/SVG/1.1/DTD/svg11.dtd">
<svg xmlns="http://www.w3.org/2000/svg">
<metadata>Copyright (C) 2025 by original authors @ fontello.com</metadata>
<defs>
<font id="fontello" horiz-adv-x="1000" >
<font-face font-family="fontello" font-weight="400" font-stretch="normal" units-per-em="1000" ascent="850" descent="-150" />
<missing-glyph horiz-adv-x="1000" />
<glyph glyph-name="api-settings" unicode="&#xe803;" d="M893 850h-643c-64 0-129-29-179-71-42-50-71-115-71-179v-643c0-64 29-128 71-178 50-50 108-72 179-72h643c64 0 128 29 178 72 50 50 72 107 72 178v643c0 43-14 86-36 129-21 35-50 71-93 92-35 15-78 29-121 29h0z m107-893c0-28-14-57-29-78-21-22-50-29-78-29h-643c-29 0-57 14-79 29-14 21-28 50-28 78v429h857v-429z m0 572h-857v71c0 29 14 57 28 79 22 14 50 28 79 28h643c28 0 57-14 78-28 15-22 29-50 29-79v-71z m-664-558h464c29 0 50 15 64 36a65 65 0 0 1 0 72c-14 21-35 35-64 35h-464c-29 0-50-14-65-35a65 65 0 0 1 0-72c15-21 43-36 65-36z" horiz-adv-x="1000" />

<glyph glyph-name="lw-icon" unicode="&#xe809;" d="M799 486c0 47-19 90-50 120-31 31-74 51-120 51-32 0-62-9-89-25-18-11-34-26-48-43l1-1c15-11 27-22 38-33 17-19 32-39 42-62 5 0 11 1 16 1 52 0 99-22 134-56 4-3 8-8 11-12 12-14 22-30 29-47 9 13 18 27 24 42 9 20 12 43 12 65z m-169 218c13 0 25 12 25 25v69c0 14-12 25-25 25s-25-11-25-25v-69c0-13 11-25 25-25z m190-64l48 49c10 9 10 25 0 35-9 9-25 9-35 0l-48-49c-10-10-10-25 0-35s25-10 35 0z m123-130h-69c-13 0-25-11-25-25s12-25 25-25h69c14 0 25 11 25 25-1 14-11 25-25 25z m-123-180c-10 9-25 9-35 0-10-10-10-25 0-35l48-49c10-9 26-9 35 0 10 10 10 26 0 35l-48 49z m-381 310c9-10 25-10 35 0s9 25 0 35l-49 49c-9 10-25 10-35 0-10-10-10-26 0-35l49-49z m249-238c-25 26-60 41-98 41-20 0-40-4-57-12-18-8-34-20-47-35-9-11-25-12-35-2-10 8-11 25-2 35 19 20 40 36 64 46 4 2 8 4 12 5-16 27-35 50-59 65-31 21-68 34-108 34-46 0-89-17-123-46-33-28-56-68-63-114-1-8-5-14-11-17-4-3-8-4-13-4-32 0-61-13-83-34s-34-51-34-83c0-32 13-61 34-82s51-34 83-34h441c39 1 74 16 99 42s41 60 41 98c0 38-16 72-41 97z m-543-172c-30 0-54 24-54 53 0 30 24 54 54 54s53-24 53-54c0-29-24-53-53-53z m414-108h-473c-18 0-32-15-32-33 0-18 14-32 32-32h473c36 0 65-29 65-65 0-27-22-49-49-49-27 0-49 22-49 49 0 18-15 32-33 32s-32-14-32-32c0-63 51-114 114-114s114 51 114 114c0 72-58 130-130 130z" horiz-adv-x="1000" />

<glyph glyph-name="style-settings" unicode="&#xe80c;" d="M523 497l266 305c18 24 45 41 75 46a115 115 0 0 0 46-1 115 115 0 0 0 42-20c13-9 24-20 32-34s14-28 16-43 2-32-2-47-11-30-21-42l-286-329c5-31 3-62-7-92a196 196 0 0 0-48-79c-30-30-67-53-108-67a301 301 0 0 0-125-17 369 369 0 0 0-202 69 39 39 0 0 0-13 38 39 39 0 0 0 24 31c57 23 71 63 88 112a269 269 0 0 0 63 113c36 36 86 56 137 57l23-2v2z m79-28c12-8 24-17 34-27a174 174 0 0 0 22-27l257 297a36 36 0 0 1 6 27c-1 8-4 15-9 21s-13 9-20 11-15 2-23-1-13-8-18-14l-249-287z m-21-85a109 109 0 0 1-81 34 121 121 0 0 1-86-35c-19-23-33-52-39-82-12-46-37-88-71-121a250 250 0 0 1 102-23 226 226 0 0 1 178 63c21 22 33 52 32 83s-13 60-35 81z m-418 370c-18 0-35-7-47-20s-20-29-20-46v-675c0-18 7-35 20-47s29-20 47-20h675c17 0 34 7 46 20s20 29 20 47v37a46 46 0 0 0 92 0v-37c0-43-16-83-46-113s-70-46-112-46h-675c-43 0-83 16-113 46s-46 70-46 113v675c0 42 16 82 46 112s70 46 113 46h448a46 46 0 1 0 0-92h-448z" horiz-adv-x="1000" />

<glyph glyph-name="external-link" unicode="&#xe80d;" d="M469-150h-299c-51 0-93 16-124 46s-46 73-46 124v599c0 51 16 93 47 123s73 46 123 46h200c24 0 44-7 57-21 12-12 19-28 19-48-1-41-30-68-75-68h-137-63c-27 0-34-7-34-34v-596c0-27 7-34 34-34h298 298c27 0 34 7 34 35v97 102c0 45 27 75 68 75h0c42 0 69-29 69-74v-19-187c0-48-16-89-47-119s-72-47-120-47h-118-184v0z m-36 370c-23 0-46 15-56 38-14 28-8 59 15 82l86 86 30 30 97 97 156 155 3 3-138 1c-22 0-40 7-53 21-12 12-19 29-19 49 1 41 29 68 72 68l155 0 149 0c42 0 70-27 70-69v-308a66 66 0 0 0-69-69 66 66 0 0 0-68 69l-1 83 0 59-4-5-91-90-270-272a109 109 0 0 0-51-27 69 69 0 0 0-13-1z" horiz-adv-x="1000" />

<glyph glyph-name="humidity-1" unicode="&#xe81a;" d="M578 839c-6 5-6 5 0 0-11 11-17 11-22 11s-12 0-17-6l-6-5c-83-78-377-411-377-700a398 398 0 0 1 400-400 398 398 0 0 1 400 400c0 289-300 628-378 700z m66-295c23 23 56 23 78 0 11-11 17-22 17-38a60 60 0 0 0-17-39l-255-256c-23-22-56-22-78 0s-22 56 0 78l255 255z m89-288c0-28-22-56-55-56-28 0-56 22-56 56 0 27 22 55 56 55s55-28 55-55z m-305 305c28 0 55-22 55-55a52 52 0 0 0-55-56c-28 0-56 22-56 56s28 55 56 55z m128-694a273 273 0 0 0-273 250c17-17 39-28 78-28s61 17 78 33c17 11 33 28 61 28s44-11 61-28 39-33 78-33 61 17 78 33c16 11 27 28 61 28 28 0 39-11 55-22-16-150-133-261-277-261z" horiz-adv-x="1000" />

<glyph glyph-name="pressure-1" unicode="&#xe81b;" d="M583-139h11c212 17 384 183 400 400v11h117v-11c-17-278-239-500-517-517h-11v117z m-66-122c-278 17-500 239-517 517v11h122v-11c17-212 184-384 400-400h11v-117h-16z m472 583v11c-17 211-183 384-400 400h-11v117h11c278-17 500-239 517-517v-11h-117z m-989 0v11c17 278 239 500 517 517h11v-122h-11a429 429 0 0 1-395-395v-11h-122z m589-28c0-22-17-33-33-33a36 36 0 0 0-34 33 36 36 0 0 0 34 34c22 0 33-11 33-34z m339 39a368 368 0 0 1-334 334h-38-39a368 368 0 0 1-334-334v-39-38a368 368 0 0 1 334-334h39 38a368 368 0 0 1 334 334v38 39z m-334-139c-11-5-27-11-38-11s-28 0-39 6c-28 11-56 33-67 67 0 11-6 27-6 38s0 28 6 39c0 0 0 6 6 6h0l-89 89c-17 16-17 39 0 50 5 5 16 11 27 11s17-6 28-11l89-89c6 0 6 5 11 5 6 6 22 12 34 12s27 0 38-6c28-11 56-33 67-67 0-11 6-27 6-39s0-27-6-38c-17-28-39-50-67-62z m-38 134c-23 0-34-17-34-34a36 36 0 0 1 34-33c22 0 33 17 33 33 0 23-11 34-33 34h0z m0 0c-23 0-34-17-34-34a36 36 0 0 1 34-33c22 0 33 17 33 33 0 23-11 34-33 34h0z" horiz-adv-x="1000" />

<glyph glyph-name="wind-gust-1" unicode="&#xe81c;" d="M1094 344a169 169 0 0 0-27 39c-6 17-11 34-11 50 0 11-6 23-6 34v5c0 17 0 34 6 50 0 6 0 6 5 11v6c0 5 0 11-5 17 0 16 0 16-6 22-17 28-28 55-28 83v11c0 28 6 50 17 72 5 6 5 12 11 17 0 6 6 11 6 11 0 6 5 11 5 17 0 28-22 50-50 50h-28c-222-22-405-172-472-378a258 258 0 0 1-28-117h-344c-17 0-22 6-28 12a42 42 0 0 0-11 22c0 16 11 28 33 33 28 0 50 28 45 56 0 27-28 50-56 44-61-5-116-61-122-128a130 130 0 0 1 39-94c28-28 61-45 100-45h344c6-44 17-94 28-138 72-200 256-345 472-362h17 17c22 6 44 23 44 50 0 12-5 23-11 28a42 42 0 0 0-11 22c-11 23-17 50-17 78 0 11 0 22 6 28 5 28 16 56 33 78l6 5c5 6 5 17 5 23s0 11-5 16c-6 17-11 39-11 56v11 11c0 28 5 50 16 72 0 6 6 6 6 11a169 169 0 0 0 28 39c5 6 11 17 11 28-6 22-11 33-23 44z m-166 389c-6-22-6-39-6-61 0-33 6-61 17-89-39 0-72-5-111-16-78-17-156-50-217-106 56 139 172 239 317 272z m5-877c-150 33-272 144-327 288 100-77 216-116 338-116-11-34-16-67-16-100-6-28 0-50 5-72z m17 266c-117 0-228 39-311 122h328c-11-27-17-61-17-94v-28z m-322 222c61 62 133 106 222 128 33 6 67 11 100 11v-16c0-45 11-89 28-128h-350v5z m-145 256h-39c-27 0-50 22-50 50s23 50 50 50h39c28 0 50-22 50-50s-22-50-50-50z m-177 0h-195c-28 0-50 22-50 50s22 50 50 50h189c28 0 50-22 50-50 6-28-17-50-44-50z m16-450h-266c-28 0-50-22-50-50s22-50 50-50h122 144c28 0 56-22 56-56 0-27-22-55-56-55-16 0-33 11-44 22s-22 22-39 22c-28 0-50-22-50-50s22-50 44-66c28-17 56-28 89-28 84 0 156 67 156 155s-72 156-156 156z" horiz-adv-x="1000" />

<glyph glyph-name="precipitation-1" unicode="&#xe81f;" d="M872 522c-55 122-178 206-322 206-167 0-311-122-344-284-117-27-206-138-206-272 0-33 6-66 17-100a42 42 0 0 1 11-22c11-17 28-28 50-28a62 62 0 0 1 61 61c0 11 0 17-6 23v5c-5 17-11 39-11 61 0 61 34 117 89 139a107 107 0 0 0 67 22c16 0 39-5 55-11-5 17-5 39-5 56 0 22 5 50 11 72 28 89 117 156 217 156 77 0 144-39 188-100 17-34 34-73 34-112 16 6 33 12 50 12 28 0 50-6 72-17 50-28 83-78 83-139 0-44-16-83-44-111 0 0-6 0-6-6-11-11-16-27-16-44a62 62 0 0 1 61-61c11 0 22 5 33 11l6 5 5 6 6 6c50 50 78 116 78 194 5 133-100 250-234 272z m-389-461h0c-27 22-33 61-11 83l67 84c22 28 61 33 83 11h0c28-22 34-61 11-83l-61-84a76 76 0 0 0-89-11z m-161-205h0c-28 22-33 61-11 83l67 83c22 28 61 34 83 11h0c28-22 33-61 11-83l-66-83c-23-28-62-34-84-11z m378 205h0c-28 22-33 61-11 83l67 84c22 28 61 33 83 11h0c28-22 33-61 11-83l-67-84c-22-28-61-28-83-11z m-167-205h0c-27 22-33 61-11 83l67 83c22 28 61 34 83 11h0c28-22 34-61 11-83l-66-83c-17-28-56-34-84-11z m-261 205h0c-28 22-33 61-11 83l67 84c22 28 61 33 83 11h0c28-22 33-61 11-83l-61-84c-22-28-61-33-89-11z" horiz-adv-x="1000" />

<glyph glyph-name="clouds-1" unicode="&#xe821;" d="M628-117h-367c-144 0-261 117-261 261 0 112 72 206 172 245 34 100 134 172 250 172 111 0 206-61 245-155a264 264 0 0 0 227-262c-5-144-122-261-266-261z m-211 556c-67 0-128-45-139-106l-6-39-39-11c-66-11-111-72-111-139 0-77 61-138 139-138h367c78 0 139 61 139 138s-61 139-139 139h-61l-11 50c-12 61-67 106-139 106z m500 150c-34 83-117 139-217 139-78 0-144-34-189-89-5-17 0-33 17-39 22-6 39-17 55-28 11-11 28-5 45 6 22 16 50 28 78 28 55 0 100-34 111-84l11-50h50a123 123 0 0 0 122-122c0-39-17-67-44-89-12-11-17-28-12-39 6-16 6-39 12-61h0a26 26 0 0 1 27-28h11s6 0 6 6c61 39 111 117 111 211 0 117-83 217-194 239z" horiz-adv-x="1000" />

<glyph glyph-name="visibility-1" unicode="&#xe823;" d="M1111 117c0 27-5 55-22 77-67 112-228 300-533 300-312 0-467-188-534-300-16-27-22-55-22-83 0-22 6-50 22-72 11-22 28-45 50-72l17-17s0-6 5-6c78-100 228-205 462-205 155 0 272 50 361 111l16 17 11 11c73 55 117 122 145 166 17 17 22 45 22 73z m-555 255c250 0 377-150 433-239 5-11 5-22 0-33-56-89-183-244-433-244s-378 150-434 244c-5 11-5 22 0 33 56 89 184 239 434 239z m188-250c0-5 0-5 0 0h0c0-111-83-194-188-194a187 187 0 0 0-189 189 187 187 0 0 0 189 189h5c11 0 17-12 17-17v-6c0-77 61-139 139-139h5c11-5 22-16 22-22z m-188 728c-34 0-62-22-62-56v-166c0-28 28-56 62-56s61 22 61 56v166c0 34-28 56-61 56z m-512-144c-22-23-27-56-11-84l106-128c17-22 55-22 83-5 28 22 28 55 11 78l-105 133c-22 22-56 28-84 6z m1017 0c28-23 28-56 11-78l-105-128c-17-22-56-22-84-6-27 23-27 56-11 78l106 128c22 22 61 28 83 6z" horiz-adv-x="1000" />

<glyph glyph-name="sunrise-1" unicode="&#xe825;" d="M1056-100h-256l-200 200a61 61 0 0 1-83 0l-200-200h-261c-34 0-56-28-56-56v-5c0-33 28-56 56-56h133 172l122 123 73 72 72-72 122-123h172 134c33 0 55 28 55 56v5a60 60 0 0 1-55 56z m-500 750c27 0 50 22 50 50v67c0 27-23 50-50 50s-50-28-50-50v-67c0-28 22-50 50-50z m344-117l50 50c17 17 17 50 0 67s-50 17-67 0l-50-50c-16-17-16-50 0-67s45-16 67 0z m44-272c0-28 23-50 50-50h67c28 0 50 22 50 50s-22 50-50 50h-67c-27-5-50-28-50-50z m-894-50h67c27 0 50 22 50 50s-23 45-50 45h-67c-28 0-50-23-50-45s22-50 50-50z m161 322c22-16 50-16 67 0s16 50 0 67l-45 50c-16 17-50 17-66 0s-17-50 0-67l44-50z m22-422c17-39 73-50 106-17h0c17 17 22 45 11 73s-17 55-17 83c0 133 134 244 278 211 78-17 139-78 161-155 11-50 11-100-11-145-11-22-5-50 11-67 34-33 84-22 106 17 16 39 28 89 28 133 0 206-178 367-389 345-150-17-278-128-300-278-17-72-6-139 16-200z" horiz-adv-x="1000" />

<glyph glyph-name="sunset-1" unicode="&#xe826;" d="M1056 78h-134-172l-122-122-72-67-73 72-122 122h-172-133c-34 0-56-27-56-55v-11c0-34 28-56 56-56h255l200-200a61 61 0 0 1 83 0l200 200h262c33 0 55 28 55 56v5a60 60 0 0 1-55 56z m-500 600c27 0 50 22 50 50v66c0 28-23 50-50 50s-50-22-50-50v-66c0-28 22-50 50-50z m344-111l50 50c17 16 17 50 0 66s-50 17-67 0l-50-50c-16-16-16-50 0-66s45-17 67 0z m44-278c0-28 23-50 50-50h67c28 0 50 22 50 50s-22 50-50 50h-67c-27 0-50-22-50-50z m-894-45h67c27 0 50 23 50 50s-23 45-50 45h-67c-28 0-50-22-50-50s22-45 50-45z m161 323c17-17 50-17 67 0s16 50 0 66l-45 50a58 58 0 0 1-72 0c-17-16-17-50 0-66l50-50z m0-350c6-28 33-50 61-50h0c39 0 67 33 61 72-5 28-5 55 0 83 17 84 84 150 167 167 144 33 278-78 278-217 0-11 0-28-6-39-5-39 22-72 61-72h0c28 0 56 22 61 50 6 22 6 39 6 61 0 222-206 395-433 339-156-39-261-178-261-339 5-16 5-39 5-55z" horiz-adv-x="1000" />

<glyph glyph-name="wind-1" unicode="&#xe873;" d="M556 728c238 0 433-195 433-434s-195-433-433-433-434 195-434 433 195 434 434 434m0 122c-306 0-556-250-556-556s250-555 556-555 555 250 555 555-250 556-555 556h0z m200-844l-189 105c-6 6-11 6-17 0l-189-105c-11-6-28 5-22 16l205 611c6 17 28 17 34 0l205-611c0-11-16-28-27-16z" horiz-adv-x="1000" />

<glyph glyph-name="additional-data" unicode="&#xe87b;" d="M170 178c-93 0-169 75-170 168 0 44 14 84 40 114 24 28 60 47 102 55h0 1c2 0 5 2 5 4v3c0 36 8 73 25 105 16 32 40 59 68 81 29 21 63 36 98 42 41 7 87 5 126-10 36-13 66-37 91-65 2-3 5-6 7-9l3-5 5 2h0c32 12 60 17 84 17 48 0 95-16 133-46 38-30 65-71 76-118v0-1c0-1 1-3 3-3h3c36-8 69-29 93-58 23-30 37-67 38-105 0-94-75-171-167-171l-54 2h-1c-16 5-27 21-27 39 0 19 20 42 42 42h35c47 0 87 39 87 86 0 47-40 87-87 87-47 0-41 18-41 39-4 71-61 125-133 125-71 0-53-8-78-25-8-5-18-7-25-7h-7c-13 3-22 11-27 23-24 51-78 84-138 84-85 0-151-67-151-151 0-85 1-24 6-39 0 0 0 0 0 0 3-14-1-28-10-37-9-9-19-12-29-12h-26c-47 0-86-40-86-87 0-47 39-86 86-86h36c22 0 42-20 42-42 0-22-20-41-42-41h-35l-1 0z m440-232c-23 0-39 15-39 37v143c-33 16-53 47-53 85 0 38 20 70 53 86v33c0 22 17 40 39 40 22 0 40-18 40-40v-31c32-17 52-50 52-86 0-36-20-69-52-85v-143c0-22-18-40-40-40v1z m-220 0c-22 0-40 17-40 39v31c-33 16-52 48-52 86 0 38 19 70 52 86v142c0 22 18 40 40 40 22 0 39-18 39-40v-142c32-17 53-50 53-86 0-36-21-69-53-86v-33c0-22-16-38-39-38v1z" horiz-adv-x="1000" />

<glyph glyph-name="additional-data-style" unicode="&#xe87c;" d="M199 25c-53 0-102 21-140 58-38 37-59 85-59 137 0 51 20 115 54 149 30 32 83 57 130 64h0 0c1 0 1 1 1 1 3 100 70 188 158 231 110 54 243 31 328-58 16-17 31-37 43-58 3-6 2-13-3-18l-42-42c-2-2-6-4-9-4-6 0-11 4-13 9-28 72-100 121-179 121-78 0-98-21-136-55-42-37-65-85-65-132v-29c0-11 0-25-11-33-8-8-18-12-28-12h-19c-65 0-127-71-127-134 0-64 52-115 117-115h508c44 0 84 17 114 48 29 30 48 71 54 116 2 17-2 37-12 59-3 5-2 12 2 16l43 42c2 3 5 4 8 4 3 0 9-3 11-7 18-35 27-74 27-113 0-135-111-245-249-245h-506v0z m537 291c0 44-40 81-88 81-48 0-88-37-88-81 0-51-26-97-68-126-8-6-6-19 4-22 19-6 53-9 73-9 96 0 167 67 167 157h0z m30 40c-11 28-36 53-65 64l203 203c9 9 22 16 35 16 13 0 26-5 35-16 9-9 16-22 16-35 0-13-5-26-16-35l-206-205-2 8 0 0z" horiz-adv-x="1000" />

<glyph glyph-name="footer" unicode="&#xe87d;" d="M225-144c-104 0-188 79-188 175v638c0 96 84 175 188 175h550c104 0 188-79 188-175v-637c0-97-84-176-188-176h-550v0z m0 906c-55 0-100-42-100-94v-636c0-52 45-94 100-94h550c55 0 100 42 100 94v637c0 51-45 94-100 94h-543-7l0-1z m40-723c-24 0-44 18-44 41 0 23 20 41 44 41h470c25 0 44-18 44-41 0-23-19-41-44-41h-470z" horiz-adv-x="1000" />

<glyph glyph-name="current-weather" unicode="&#xe87e;" d="M368-148c-11 0-21 3-30 10l0 0-1 0c-8 9-12 19-12 31 0 11 4 22 12 30l102 101c0 0 1 2 1 3-2 2-4 3-4 3h-70c-9 0-15 2-23 7-6 4-13 9-16 19-2 8-2 15 0 25 2 7 6 13 13 20l175 176c8 8 19 12 29 12 10 0 23-5 30-12 8-9 13-19 13-31 0-11-5-20-12-29l-1-1-101-101c0-1-1-2 0-4 0 0 1 0 1 0h1c0 0 0 0 0 0h71c5 0 12-1 22-7h1c6-4 12-9 15-19 3-8 3-13 0-24v-1l0 0c-2-7-6-13-12-19h0c0-1-176-177-176-177-8-8-18-12-28-12l0 0z m-151 168c-55 0-104 20-142 58-38 39-58 90-58 142 0 52 20 104 58 142 40 37 90 58 142 58 51 0 16-1 28-4h1l2 2c29 51 77 90 133 109l2 1 1 1c18 47 52 86 96 111 35 20 72 31 109 31 38 0 26-3 39-5 49-8 96-36 128-75 34-37 52-87 52-139 0-53-3-43-10-60v-2l2-2c39-23 70-58 84-97 13-39 13-83 0-123-13-42-40-80-73-105-35-27-78-41-121-41-42 0-22 4-30 13-8 8-12 18-12 30 0 11 4 22 12 30 8 8 20 13 30 13 29 0 58 11 80 31 24 24 37 51 37 77 0 0 0 1 0 1 2 28-7 57-26 81-17 23-43 39-72 43h-19c-13 0-27-4-38-8l-2-1h-11c-6 0-14 3-18 5-10 5-17 13-22 22 0 1 0 1 0 1-12 30-32 55-57 73-26 18-58 28-89 28-31 0-63-10-89-28-25-17-45-43-57-73-2-9-9-17-20-23-6-2-15-4-18-4h-1l-12 2-1 0c-11 5-25 7-38 8-2 0-3 0-5 0-27 0-56-13-78-36-23-22-35-51-35-83 0-32 12-60 35-83 22-23 51-35 83-35 32 0 22-5 30-13 9-8 13-19 13-30 0-12-4-22-13-31-7-6-14-12-30-12l0 0z m500 400c1 0 2 0 3 0l1 0c2 6 3 11 3 31 0 37-13 71-39 96-25 25-60 39-96 39-36 0-40-4-57-12-14-6-33-17-46-34l-1-1 0 0c-1 0-1-1-1-1 0 0 1 0 2 0h0 0c38-5 74-18 103-39 29-18 55-45 74-78l2-1h52v0z m180-9c-10 0-23 5-30 12-8 8-13 19-13 31 0 11 5 22 13 30 8 8 19 13 30 13h44c10 0 23-6 30-13 8-8 13-19 13-30 0-12-5-23-13-31-8-8-19-12-30-12h-44z m-92 217c-11 0-23 5-31 12-8 8-12 19-12 31 0 11 5 22 12 30l31 30c8 9 19 13 30 13 12 0 22-4 30-13 9-8 13-18 13-30 0-11-5-23-13-30l-30-31c-8-8-19-12-30-12z m-426 0c-12 0-23 4-31 12l-30 31c-8 7-13 20-13 30 0 11 4 22 13 30 8 9 18 13 30 13 11 0 22-4 30-13l31-30c7-8 12-20 12-30 0-11-4-23-12-31-8-7-20-12-30-12z m210 91c-11 0-23 5-30 12-9 9-13 19-13 31v43c0 11 5 23 13 30 8 9 18 13 30 13 11 0 22-4 30-13 8-8 13-18 13-30v-43c0-11-5-23-13-31-8-8-19-12-30-12z" horiz-adv-x="1000" />

<glyph glyph-name="forecast-data" unicode="&#xe87f;" d="M611-130c-12 0-27 0-39 7-23 10-41 30-48 51l-119 313c-4 9-11 15-19 17-1 0-1 0-2 0-1 0-2 0-3 0-9 0-13-7-14-8l-54-117c-6-15-17-28-33-39-15-9-32-14-51-14h-178c-17 0-32 9-39 23-8 13-8 31 0 44 8 14 24 24 38 24h180l70 154c11 23 30 41 53 48 10 5 22 5 34 5 12 0 27-2 38-7h0c24-10 42-30 49-53l124-320c1-2 6-8 17-8 11 0 16 7 17 8l54 117c7 15 18 28 34 39 14 9 31 14 51 14h178c17 0 32-9 39-23 8-14 8-32 0-45-8-13-24-23-39-23h-179l-71-155c-10-24-30-41-53-48-18-5-34-5-35-5h0v1z m-553 440c-9 0-18 3-25 9-8 6-12 14-14 23-10 40-10 82 0 129 0 0 0 1 0 1 15 45 40 83 72 108 35 29 72 42 115 53 19 6 21 25 29 41 70 131 241 193 379 133 38-17 73-38 102-69 15-15 28-33 39-51 11-19 15-44 33-52 7-4 16-5 24-7 80-18 141-80 167-156 14-42 14-89 0-131-9-24-39-34-59-17-25 20-9 53-9 80 0 34-12 67-33 94-16 21-41 37-66 46-26 9-67 0-85 18-6 7-12 15-14 23 0 1 0 1 0 1-16 61-57 112-115 138-28 13-58 20-90 20-31 0-62-7-90-20-32-14-60-37-80-66-11-15-20-31-27-49-7-17-6-36-22-46-19-13-42-11-63-14-24-3-46-14-64-29-29-22-48-53-55-85-4-24-4-46 0-68 5-15 1-30-12-44-8-7-21-13-32-13h-4-1z" horiz-adv-x="1000" />

<glyph glyph-name="regional-weather" unicode="&#xe880;" d="M498-116c-126 0-243 48-330 135-87 87-135 205-135 332 0 261 205 466 467 466 262 0 28 0 41-1 23-2 39-22 37-44-2-21-19-37-40-37-21 0-2 0-4 0-12 1-23 2-34 2-18 0-45-41-64-96-11-31-19-66-26-105h129c22 0 40-19 40-41 0-22-18-40-40-40h-139c-3-34-5-69-5-105 0-35 2-70 5-104h200c2 31 4 64 4 96 0 22 19 40 41 40h0c22-1 40-19 40-41 0-32-2-64-4-95h192c8 31 12 63 13 96 1 20 16 37 36 39l0 1h6c10 0 20-5 28-12 7-8 11-18 11-29-2-125-52-240-138-325-87-85-204-132-329-132h-2l0 0z m-88 281c7-39 16-75 26-105 19-55 46-96 64-96 18 0 37 19 63 93 11 31 20 68 27 108h-180z m-251 0c18-33 40-63 67-90 43-43 97-75 155-93-8 15-15 33-21 52-13 39-24 83-31 131h-170z m513 0c-8-50-19-95-33-134-6-17-12-34-20-49 58 18 110 49 153 91 27 27 51 58 69 92h-170 1z m-353 81c-3 33-4 68-4 104 0 36 1 69 4 104h-191c-9-33-14-68-14-104 0-36 4-71 13-104h192z m10 289c7 49 18 93 31 131 6 19 13 37 21 52-59-18-112-50-155-93-27-27-49-57-67-90h170z m453-196c-13 0-26 6-33 17l-120 172c-20 29-32 69-32 104 0 102 83 185 185 185 102 0 185-83 185-185 0-58-11-73-33-104l-119-172c-7-11-20-17-33-17z m0 397c-57 0-104-47-104-104 0-32 6-41 18-58l86-124 86 124c12 18 18 31 18 58 0 57-46 104-104 104z m-5-149h47c16 0 29 13 29 29 0 16-13 29-29 29h-18v33c0 16-13 28-29 28-16 0-29-12-29-28v-62c0-16 13-29 29-29z" horiz-adv-x="1000" />

<glyph glyph-name="display-icon" unicode="&#xe881;" d="M464 732v1c-6 49-51 93-99 99h-1c-82 8-164 8-246 0h-1c-49-6-93-51-99-100v0c-8-82-8-164 0-246v-1c6-49 51-93 100-99h0c41-4 82-6 123-6 41 0 82 2 123 6h1c49 6 93 51 99 99v1c8 82 8 164 0 246v0z m-110-256c-38-4-76-6-113-6-38 0-76 2-114 6-7 1-18 13-20 20-8 75-8 151 0 227 1 7 13 18 20 19 38 4 76 6 113 6 38 0 76-1 114-6 7-1 19-12 20-19 8-76 8-152 0-227-1-8-12-19-20-20h0z m628 256v1c-6 49-50 93-99 99h-1c-81 8-164 8-246 0h0c-49-6-94-51-99-100v0c-9-82-9-164 0-246v-1c5-49 50-93 99-99h0c41-4 82-6 123-6 42 0 83 2 123 6h1c49 6 93 51 99 99v1c9 82 9 164 0 246v0z m-109-256c-38-4-76-6-114-6-37 0-76 2-113 6-8 1-19 12-20 20-8 75-8 151 0 226 1 8 13 19 20 20 38 4 76 6 113 6 38 0 76-2 114-6 7-1 19-12 20-20 8-75 8-151 0-226-2-8-13-19-20-20h0z m109-262v0c-6 49-51 94-99 99h-1c-82 9-164 9-246 0h0c-49-5-94-50-99-99v0c-9-82-9-165 0-246v-1c5-49 50-93 99-99h0c41-4 82-7 123-7 41 0 82 3 123 7h0c49 6 94 50 99 99v1c9 81 9 164 0 246h1z m-109-256c-38-4-76-6-114-6-37 0-76 2-113 6-8 1-19 12-20 20-8 75-8 151 0 226 1 8 12 19 20 20 37 4 75 6 113 6 38 0 76-2 113-6 8-1 19-12 20-20 8-75 8-151 0-226-1-8-12-19-20-20h1z m-410 256v0c-5 49-50 94-99 99h0c-82 9-165 9-246 0h-1c-49-5-93-50-99-99v0c-9-82-9-165 0-246v-1c6-49 50-93 99-99h1c41-4 82-7 123-7 41 0 82 3 123 7h0c49 6 94 50 99 99v1c9 81 9 164 0 246z m-109-256c-38-4-76-6-113-6-38 0-76 2-114 6-7 1-18 12-20 20-8 75-8 151 0 226 1 8 13 19 20 20 38 4 76 6 113 6 38 0 76-2 114-6 7-1 19-12 20-20 8-75 8-151 0-226-1-8-13-19-20-20h0z" horiz-adv-x="1000" />

<glyph glyph-name="style" unicode="&#xe882;" d="M448-154c-117 0-228 44-313 125-87 84-138 196-141 317v2c-1 40 4 81 13 120 18 70 53 136 101 191 49 55 110 97 177 123 35 13 81 25 109 27 3 1 7 1 10 1 19 0 55-4 89-33 20-18 45-53 50-79 3-16-2-32-13-44-8-7-19-12-31-12-12 0-30 7-36 19-16 33-38 48-68 48-30 0-55-11-82-22-65-27-122-74-160-133-39-59-59-128-59-204v-1c3-93 41-180 108-245 66-65 154-101 247-101 3 0 6 0 8 0 167 5 310 126 341 289 1 8-2 14-5 17-4 5-9 7-15 7-6 0-1 0-1 0h-10c-2 0-4 0-7 0-1 0-1 0-2 0-16 0-31 8-41 21-9 13-11 29-6 44 0 1 1 1 1 1v1c7 19 25 32 45 32l17 1c1 0 2 0 3 0 35 0 68-16 91-43l4-4h-1c16-20 25-45 26-70 0-9-1-18-3-26-18-100-72-192-150-260-79-68-180-107-285-109-4 0-7 0-11 0l0 0z m81 163c-25 0-49 16-57 39-5 15-4 31 3 45 7 14 19 24 34 29 6 2 12 3 18 3 26 0 49-16 56-41l1-4c6-27-7-54-32-66-7-3-15-5-23-5l0 0z m-183 12c-27 0-50 18-57 44-7 27 8 56 34 67 7 4 15 5 23 5 26 0 50-18 56-44 8-31-4-55-33-68-7-3-15-4-23-4z m-120 137c-25 0-48 15-56 39-10 31 6 64 37 74 6 2 12 3 19 3 25 0 47-16 55-39 5-15 4-31-3-45-7-14-19-24-34-29-6-2-12-3-18-3z m12 182c-28 0-52 18-57 46-7 30 4 52 32 65 8 4 16 5 25 5 25 0 47-16 55-39l3-8h-1c2-12 1-25-5-37-7-14-19-24-34-29-6-3-12-3-18-3z m240-150c-54 0-106 21-145 60-7 7-13 15-19 22-11 15-13 35-5 52 9 17 25 27 44 27 19 0 24 5 32 13 11 11 12 18 13 36 2 24 6 61 42 98 25 25 58 39 93 41l282 282c21 21 49 33 79 33 30 0 58-12 79-33 21-21 33-49 33-79 0-30-12-58-33-79l-288-289c-1-7-3-14-5-21-10-45-36-83-56-103-37-37-87-59-140-60l-6 0 0 0z m-26 102c8-2 18-3 27-3 29 0 56 11 76 31 10 11 24 33 29 56 2 6 3 13 3 19v1c-1 19-10 29-14 32-6 7-14 11-23 13-2 0-4 0-6 0-1 0-1 0-2 0-12 0-24-4-32-13-12-11-12-18-14-36-2-24-5-60-42-97-1-1-1-2-2-3v0z m183 214c2-2 6-6 8-8 5-5 11-11 15-16l247 248c4 4 4 8 4 10 0 2-2 8-6 11-3 4-9 6-11 6-2 0-6 0-10-4l-247-247z" horiz-adv-x="1000" />

<glyph glyph-name="weather-settings" unicode="&#xe883;" d="M790 291l-44 9 25 38c12 19 10 43-6 59l-66 67c-9 8-21 13-33 13-13 0-18-3-26-8l-38-25-9 45c-5 22-24 37-46 37h-94c-22 0-42-15-46-37l-9-45-38 25c-8 5-17 8-26 8-9 0-24-5-33-13l-66-67c-16-16-18-40-6-59l25-38-44-9c-22-4-38-24-38-46v-94c0-22 16-41 38-45l44-9-25-38c-12-19-10-44 6-60l66-66c9-9 21-14 33-14 13 0 18 3 26 8l38 26 9-45c5-22 24-38 46-38h94c22 0 42 16 46 38l9 45 38-26c4-2 8-4 12-6 5-1 9-2 14-2 12 0 24 5 33 14l66 66c16 16 18 41 6 60l-25 38 44 9c22 4 38 23 38 46v93c0 23-16 42-38 46h0z m-40-114l-47-9c-11-3-20-11-23-22-4-13-9-26-16-38-6-10-5-23 1-32l26-39-30-31-39 26c-9 7-22 8-32 2-12-7-25-12-38-16-11-3-20-12-22-24l-9-46h-43l-9 46c-2 12-11 21-22 24-13 4-26 9-38 16-10 6-22 5-32-2l-39-26-30 30 26 39c6 10 7 23 1 33-7 12-12 24-16 38-3 11-12 19-23 22l-47 9v42l47 10c11 2 20 10 23 22 4 13 9 25 16 38 6 10 5 22-1 32l-27 39 31 30 39-26c9-6 22-7 32-1 12 6 25 11 38 15 11 4 19 13 22 24l9 46h43l9-46c2-11 11-20 22-24 13-3 26-9 38-15 10-6 22-5 32 1l39 26 30-30-26-39c-6-10-7-22-1-32 7-12 12-25 16-38 3-11 12-20 23-22l47-9v-43z m-250 146c-69 0-124-56-124-125 0-68 55-124 124-124 68 0 124 56 124 124 0 69-56 125-124 125z m0-175c-28 0-51 23-51 50 0 28 23 51 51 51 27 0 50-23 50-51 0-27-23-50-50-50z m477 313c-19 60-66 107-129 127-7 35-25 82-71 117-32 24-73 38-116 38-42 0-32-2-48-6-26 38-72 83-146 96-1 1-14 3-34 3-39 0-112-9-169-71-35-38-49-82-55-113-36-6-70-21-100-42-41-29-71-71-85-117-29-99 27-183 38-199 9-12 23-19 37-19 15 0 20 4 27 9 10 7 17 18 19 30 2 12-1 24-8 34-5 6-42 60-24 119 16 56 74 96 140 97 25 1 45 22 45 47 0 16 2 58 34 92 33 36 77 41 101 41 23 0 18-1 19-1 70-12 97-77 98-79 5-12 15-22 26-26 5-2 11-3 16-3 6 0 14 2 21 5 15 8 32 12 49 12 17 0 43-7 60-20 38-29 39-76 39-81 0-23 17-42 39-45 43-6 78-34 89-72 12-40-8-76-13-83-6-10-8-23-6-35 3-11 10-22 21-28 7-5 15-7 24-7 16 0 31 8 39 21 11 18 46 83 23 159l0 0z" horiz-adv-x="1000" />

<glyph glyph-name="api-sett" unicode="&#xe884;" d="M420-133c-21 0-39 18-39 39v115c-16 5-33 12-49 21l-81-81c-8-8-18-12-28-12-10 0-20 4-27 12l-97 96c-15 15-15 40 0 55 0 0 81 81 81 81-8 16-15 33-21 50h-114c-22 0-39 17-39 39v136c0 22 17 39 39 39h114c6 17 13 34 21 50l-81 81c-15 15-15 40 0 55l97 97c7 7 17 11 27 11 10 0 20-4 28-11 0 0 80-81 81-81 16 8 33 15 49 20v115c0 21 18 39 39 39h148c22 0 39-18 39-39v-176h-77v137h-71v-105c0-19-12-34-30-38-29-7-57-19-83-35-6-4-14-6-21-6-10 0-20 4-27 11l-75 75-41-42 74-74c13-13 15-33 6-48-17-26-28-54-35-84-4-17-20-30-38-30h-105v-59h105c19 0 34-12 38-30 7-29 19-57 35-83 10-16 7-35-6-48l-74-75 41-41 75 74c7 7 17 11 27 11 11 0 15-2 21-6 26-16 54-27 83-34 18-4 31-20 31-38v-106h70v198c-10-2-20-2-30-2-115 0-209 94-209 209 0 116 94 210 209 210 116 0 39-17 39-39v-109c9-5 17-13 23-22h116v302c0 22 17 39 39 39h143c13 21 36 35 61 35 41 0 73-33 73-74 0-40-32-73-73-73-40 0-48 13-61 35h-104v-264h104c13 21 36 34 61 34 41 0 73-33 73-73 0-40-32-73-73-73-40 0-48 13-61 34h-104v-263h104c13 21 36 34 61 34 41 0 73-33 73-73 0-40-32-73-73-73-40 0-48 13-61 34h-143c-22 0-39 17-39 39v303h-116c-13-22-37-35-62-35-40 0-73 33-73 73 0 41 13 49 34 62v64c-55-17-92-68-92-126 0-58 59-132 131-132 73 0 36 4 53 11 5 2 10 4 16 4 5 0 15-2 21-7 11-7 18-19 18-32v-288c0-21-18-38-39-38h-148l-1-1z" horiz-adv-x="1000" />

<glyph glyph-name="code" unicode="&#xe885;" d="M293-142c-157 0-285 128-285 285v414c0 157 128 285 285 285h414c157 0 285-128 285-285v-414c0-157-128-285-285-285h-414z m0 902c-112 0-203-91-203-203v-414c0-112 91-203 203-203h414c112 0 203 91 203 203v414c0 112-91 203-203 203h-414z m104-600c-9 0-18 4-24 11l-155 154c-7 7-11 16-11 25 0 9 4 18 11 25l155 155c6 6 15 10 24 10 10 0 18-4 25-10 7-7 10-16 10-25 0-10-3-18-10-25l-130-130 130-130c7-6 10-15 10-25 0-9-3-18-10-24-7-7-15-11-25-11z m206 0c-10 0-18 4-25 11-7 6-10 15-10 24 0 10 3 19 10 25l130 130-130 130c-7 7-10 15-10 25 0 9 3 18 10 25 7 6 15 10 25 10 9 0 18-4 25-10l154-155c7-7 11-16 11-25 0-9-4-18-11-25l-154-154c-7-7-16-11-25-11z" horiz-adv-x="1000" />

<glyph glyph-name="advanced" unicode="&#xe886;" d="M842-144c-41 0-79 16-108 44l-203 203c-17 18-31 41-38 66l-72-72c10-66-12-132-59-179-39-40-92-61-147-61-32 0-62 6-90 20-12 5-20 16-22 28-2 13 2 26 11 35l62 62v25h-25l-62-62c-8-8-17-12-28-12-15 0-29 9-35 22-38 80-22 176 41 238 39 39 93 61 148 61 55 0 21-1 31-2l94 95-139 139-9-8c-7-8-17-12-27-12-11 0-27 7-34 19l-119 200c-10 16-7 35 5 48l81 80c7 7 17 11 27 11 10 0 14-2 20-5l200-120c11-7 18-17 19-29 1-12-3-24-11-32l-9-9 140-140 95 95c-10 66 11 132 58 179 40 40 92 61 148 61 56 0 62-7 90-20 11-6 20-16 22-29 2-12-2-25-11-34l-62-62v-25h25l62 62c7 8 17 12 28 12 15 0 28-9 35-23 38-79 21-175-41-237-39-39-93-61-148-61-55 0-21 0-31 2l-72-72c24-7 47-20 65-38l203-203c60-60 60-156 0-216-28-28-67-44-107-44h-1z m-254 406c-26-26-34-71-1-104l203-203c14-14 32-21 52-21 20 0 39 7 53 21 29 29 29 76 0 105l-203 203c-14 14-33 22-51 22-19 0-37-8-53-23h0z m-373-158c21 0 39-17 39-39v-80c0-10-5-20-12-27l-23-23c33 1 65 14 88 38 33 33 46 81 34 126-3 14 0 28 10 38l362 362c8 7 18 11 28 11 10 0 7 0 10-1 11-3 22-5 34-5 34 0 68 14 92 39 24 23 37 55 39 88l-24-23c-7-8-17-12-27-12h-80c-22 0-39 18-39 39v80c0 11 4 20 11 28l24 23c-34-1-65-15-89-38-33-33-46-82-34-127 4-13 0-28-10-37-12-13-356-356-362-362-7-8-17-12-27-12-11 0-7 1-10 2-11 3-23 4-34 4-35 0-69-14-93-38-23-23-37-55-38-88l23 23c8 7 17 11 28 11h80z m181 318l33 32-140 140-33-33 140-139z m-223 166l89 89-131 79-37-37 79-131z" horiz-adv-x="1000" />

<glyph glyph-name="key-01" unicode="&#xe887;" d="M992 534c-8 78-44 152-100 208-56 56-130 92-208 100-13 1-25 2-37 2-67 0-132-19-188-55-67-43-117-108-142-183-24-72-24-150 1-221l-295-294c-11-11-17-26-17-41v-143c0-14 5-26 15-36 10-10 22-15 36-15h143c15 0 29 6 40 16l36 36c12 11 18 27 18 43v47h39c18 0 36 8 49 21 13 13 20 30 20 48v39h47c17 0 32 7 44 18l42 43c36-12 74-18 112-18 38 0 74 6 109 17 75 25 140 76 183 142 43 67 62 147 53 225v1z m-120-189c-35-52-88-90-148-108-25-8-51-12-77-12-27 0-72 8-106 22-4 2-9 3-14 3-5 0-5-1-8-1-7-2-14-5-19-10l-56-56h-70c-13 0-24-5-33-14-9-9-14-21-14-33v-60h-61c-12 0-24-5-33-14-9-9-14-21-14-33v-70l-26-27h-111v111l307 307c5 5 9 12 10 20 2 7 1 15-2 22-24 57-28 122-10 183 18 60 57 112 109 147 45 31 97 47 151 47 55 0 18-1 26-2 63-6 122-33 166-77l0-1c45-44 72-103 78-165 6-63-10-126-44-178l-1-1z m-73 303c-23 23-53 36-86 36-32 0-62-13-85-36-23-22-35-53-35-85 0-32 12-63 35-85 23-23 53-36 85-36 33 0 63 13 86 36 23 23 35 53 35 85 0 32-12 63-35 85z m-54-117c-9-9-20-14-32-14-12 0-23 5-32 14-8 8-13 19-13 31 0 12 5 24 13 32 9 9 20 13 32 13h3c11 0 21-5 29-13 9-8 13-19 13-31 0-13-5-24-13-32l0 0z" horiz-adv-x="1000" />

<glyph glyph-name="weather-map" unicode="&#xe888;" d="M258 236h1 9l-2 7c0 2-2 9-2 9 0 0 0 0 0 0-1 2-1 3-2 7v0l0 1c-6 18-9 38-12 60l0 3-3 1c-37 20-61 63-61 109 0 47 13 63 35 84 17 17 37 28 60 32l29 6v29c4 41 26 81 63 113 34 28 77 46 114 46 76 0 141-45 167-115v-2l11-21 22-5h0c73-11 129-75 129-147v-8c-3-38-21-75-50-100l-2-2v-2c0-1 0-2 0-3 0-1 0-2 0-3 0-3 0-6 0-9-2-23-7-47-14-71-1-2-2-4-2-5l-3-12 11 5c38 16 71 42 96 75 25 33 40 72 43 113v20c0 105-71 196-172 222-48 99-127 150-237 150-110 0-229-88-253-204-24-9-51-25-71-45-39-37-62-92-62-144 0-44 16-88 45-123 29-35 69-60 113-71v0z m714-295l-70 228c-5 21-25 36-46 36h-126l-2-3c0-1 0-2 0-2-1-1 0-1 0-1v0l-1-1c-1-2-1-4-2-6l-2-3c-9-19-19-38-30-54 0 0-1-1-1-2 0-1-1-2-1-2l-7-9h145l50-161h-756l50 161h152l-5 9c-14 22-27 47-38 71l-1 3h-132c-22 0-42-15-47-35l-75-229c-3-11-2-25 3-39l1-1 3-4c8-7 22-19 40-19h850c17 0 31 7 41 21 10 10 12 25 6 42l1 0z m-306 569c-41 39-98 60-165 60-107 0-222-80-222-210 0-130 136-310 196-357l1 0 2-1c7-4 17-8 26-8 9 0 17 3 25 7h0l5 3h1c45 40 194 183 194 357-2 60-24 111-63 149h0z m-66-304c-28-46-66-87-99-121-92 94-140 188-140 271 1 72 62 128 140 128 77 0 128-40 140-129 6-45-8-95-41-149z m-94 206h-4c-33 1-60-26-61-59 0-34 27-61 60-61h4c33 0 60 27 60 60 0 33-26 60-59 60z" horiz-adv-x="1000" />

<glyph glyph-name="control-layer" unicode="&#xe889;" d="M494-149v1c-27 0-53 8-76 20l-335 188-1 0c-30 17-49 50-49 85 0 36 19 69 50 86l31 17-31 17-1 0c-30 17-49 50-49 85 0 36 19 68 50 86l31 17-31 17-1 0c-30 17-49 50-49 85 0 35 19 68 50 86l335 187c25 13 53 21 82 21 29 0 57-8 82-21l335-188 1 0c30-17 49-50 49-85 0-36-19-68-50-86l-30-17 30-17 1 0c30-17 49-49 49-85v-5c-1-34-20-64-50-81l-30-16 30-17 1-1c30-17 49-50 49-85 0-35-19-68-50-86l-161-90c-7-4-14-6-22-6-22 0-40 19-40 41 0 23 9 30 21 36l163 91c4 4 7 9 7 14 0 5-3 12-8 15l-74 41-221-124c-25-13-53-21-82-21-29 0-57 8-82 21l-221 124-74-41c-5-3-9-9-9-15 0-6 4-11 9-14l334-187c13-8 28-11 43-11 15 0 29 3 42 10l4 2c6 4 13 6 21 6 22 0 41-18 41-41 0-22-10-29-22-36l-5-2c-24-14-53-21-81-21h-6l0 0z m-33 296c12-6 25-9 39-9 14 0 30 3 42 10l336 189h0c5 3 8 8 8 13 0 6-4 12-9 15l-74 41-221-124c-25-13-53-21-82-21-29 0-57 8-82 21l-221 124-74-41c-5-3-8-9-8-15 0-6 3-11 8-14l338-189h0z m0 205c12-6 25-9 39-9 14 0 29 4 42 11l335 187c5 3 8 8 8 14 0 6-3 12-8 15l-335 186c-13 8-27 12-42 12-15 0-29-4-42-11l-335-187c-5-3-8-9-8-14v-1c0-6 3-12 8-14l338-189v0z" horiz-adv-x="1000" />

<glyph glyph-name="map-preferences" unicode="&#xe88a;" d="M956 492c-23 29-55 49-91 58h-3c-2 0-3 1-3 2v2c-11 45-38 87-75 116-38 30-84 46-132 46-47 0-51-6-82-17h-1l-4-2-4 4c-2 4-5 6-7 9-24 28-54 52-89 65-39 14-84 17-125 10-35-6-68-21-97-42-28-21-51-49-67-80-16-32-25-68-25-104v-2c0-3-2-5-5-5h-1c-41-8-76-26-101-54-25-29-39-69-38-113 0-91 75-166 167-166h1 35c22 0 41 19 41 41 0 22-20 41-41 41h-36c-46 0-85 39-85 86 0 46 39 85 85 85h25c10 0 20 4 29 12 9 9 13 23 10 37v0c-5 15-6 20-6 38 0 84 66 150 150 150 84 0 112-33 135-84 5-11 14-19 27-22h7c7 0 16 2 24 7 25 17 7 24 78 24 70 0 127-53 131-123 0-21-5-39 41-39 46 0 85-39 85-85 0-47-39-86-85-86h-35c-22 0-41-23-41-41 0-18 11-34 26-39h1l53-2c91 0 165 76 165 170-1 37-14 73-37 103l0 0z m-457-102c-115 0-209-95-209-212 0-117 75-184 138-240 20-17 45-27 71-27 27 0 52 10 72 27 63 56 138 143 138 240 0 96-94 212-210 212z m23-397c-7-5-14-8-23-8-8 0-16 3-22 8-99 88-113 154-113 185 0 76 61 138 135 138 75 0 136-62 136-138 0-76-71-147-113-185h0z m-20 244c-29 0-52-22-52-49v-6c0-27 23-49 52-49 28 0 51 22 51 49v6c0 27-23 49-51 49z" horiz-adv-x="1000" />

<glyph glyph-name="popup-weather" unicode="&#xe88b;" d="M500-118c-21 0-41 9-57 24l-84 84h-149c-114 0-206 93-206 207v414c0 114 93 207 207 207h578c114 0 207-93 207-207v-410c0-114-93-207-207-207h-149l-83-83c0 0-1 0-1 0-13-17-29-26-48-28v-1h-8l0 0z m-289 851c-33 0-63-13-86-35-23-24-36-54-36-86v-411c0-32 13-63 36-86 23-22 53-35 86-35h159c13 0 28-6 44-16l1 0 89-90 90 90c13 13 29 20 44 20h156c32 0 63 13 86 36 22 22 35 53 35 86v405c0 33-12 64-35 86-23 23-54 36-86 36h-583z m246-204c-21 0-43 17-43 44 0 26 17 43 43 43h246c21 0 43-17 43-43 0-27-16-44-39-44h-250z m0-164c-21 0-43 16-43 43 0 27 17 43 43 43h246c21 0 43-16 43-43 0-27-16-43-39-43h-250z m0-164c-21 0-43 16-43 43 0 27 17 43 43 43h246c21 0 43-16 43-43 0-27-16-43-39-43h-250z m-164 328c-21 0-43 17-43 44 0 26 17 43 43 43 26 0 43-17 43-43 0-27-17-44-43-44z m0-164c-21 0-43 16-43 43 0 27 17 43 43 43 26 0 43-17 43-43 0-26-17-43-43-43z m0-164c-21 0-43 16-43 43 0 27 17 43 43 43 26 0 43-17 43-43 0-26-17-43-43-43z" horiz-adv-x="1000" />

<glyph glyph-name="chevron" unicode="&#xe893;" d="M269 306l375-369c25-25 69-25 94 0 25 25 25 69 0 94l-332 319 325 325c25 25 25 69 0 94-25 25-68 25-93 0l-375-375c-19-25-19-63 6-88z" horiz-adv-x="750" />

<glyph glyph-name="location-icon" unicode="&#xe899;" d="M500 850c207 0 375-179 375-400 0-80-28-153-79-229l-259-352a45 45 0 0 0-74 0l-259 352c-51 76-79 149-79 229 0 221 168 400 375 400z m0-100c-155 0-281-134-281-300 0-55 21-110 61-171l220-299 220 299c40 61 61 115 61 171 0 166-126 300-281 300z m-116-159a171 171 0 0 0 186 37 171 171 0 0 0 93-93 171 171 0 0 0 0-130 171 171 0 0 0-93-93 171 171 0 0 0-186 37 171 171 0 0 0 0 242z m121-32a89 89 0 0 1-89-89 89 89 0 0 1 89-89 89 89 0 0 1 63 26 89 89 0 0 1 26 63 89 89 0 0 1-26 63 89 89 0 0 1-63 26z" horiz-adv-x="1000" />

<glyph glyph-name="shuttle_2285485-1" unicode="&#xe8bd;" d="M1030 775c-2 40-34 72-73 74-81 4-237 0-387-78-77-39-158-106-222-184-1 0-2-1-3-2l-146-12c-24-2-46-14-59-34l-100-151c-10-16-12-35-4-52 7-16 23-28 41-31l123-19c0-2-1-5-1-7-4-25 4-50 22-68l171-172c15-14 35-23 55-23 5 0 9 1 13 2 2 0 5 0 7 1l19-124c3-18 15-33 32-40 7-4 14-5 21-5 11 0 21 3 30 9l151 100c20 13 33 35 35 59l11 146c1 1 2 2 3 3 77 64 144 145 184 221 77 150 81 307 77 387z m-342-767l-145-96-19 120c61 18 122 47 179 86l-7-96c0-6-3-11-8-14z m-254 73l-172 172c-4 4-6 10-5 16 5 31 13 60 22 87l258-258c-33-12-62-19-87-23-6-1-12 1-16 6z m-230 434l95 7c-39-57-67-118-85-179l-121 19 96 144c3 5 9 8 15 9z m527-303c-47-40-93-68-135-89l-292 291c27 56 60 102 89 136 60 72 134 133 204 169 137 72 282 75 356 71 10 0 18-8 19-18 4-74 0-219-71-357-36-69-98-144-170-203z m-15 177c38 0 75 14 104 42 28 28 43 65 43 104 0 39-15 76-43 104-57 57-150 57-207 0-28-28-43-65-43-104 0-39 15-76 43-104 28-28 66-42 103-42z m-62 208c17 17 40 26 62 26 23 0 45-9 62-26 17-16 26-38 26-62 0-23-9-46-26-62-34-34-90-34-124 0-16 16-26 39-26 62 0 24 10 46 26 62z m-593-571c8 0 15 3 21 9l96 95c11 12 11 30 0 42-12 11-30 11-42 0l-96-96c-11-11-11-30 0-41 6-6 14-9 21-9z m204 58c-11 11-30 11-41 0l-184-184c-12-11-12-30 0-41 6-6 13-9 21-9 7 0 15 3 20 9l184 184c12 11 12 30 0 41z m46-88l-95-95c-12-12-12-30 0-42 6-6 13-8 20-8 8 0 15 2 21 8l96 96c11 11 11 30 0 41-12 12-30 12-42 0z" horiz-adv-x="1063" />

<glyph glyph-name="check-icon" unicode="&#xe8be;" d="M493-97c-12-12-27-18-43-18-17 0-32 6-44 18l-346 346c-36 36-36 94 0 130l44 43c36 36 94 36 130 0l216-216 583 584c36 36 94 36 130 0l43-44c36-35 36-94 0-129l-713-714z" horiz-adv-x="1267" />
</font>
</defs>
</svg>
